Loading...
Error

Скачать Дом летающих кинжалов / Shi mian mai fu (Чжан Имоу) [2004, фэнтези, боевик, драма, мелодрама, приключения, BDRip] [1080p] [FREEISLAND] торрент без регистрации

Статистика раздачи
Размер:  7,95 GB   |    Скачан:  151 раз
Сидов:  1  [  0 KB/s  ]  
 
 
 
Автор Сообщение

Marsianka

[] 

Дом летающих кинжалов
Shi mian mai fu




Год выпуска: 2004
Страна: Гонконг, Китай
Жанр: фэнтези, боевик, драма, мелодрама, приключения
Продолжительность: 119 мин.
Перевод: Дублированный + Оригинальная дорожка

Режиссер: Чжан Имоу
Продюссер: Уильям Конг, Чжан Имоу, Чжан Вэйпин
Сценарий: Ли Фэн, Ван Бинь, Чжан Имоу

Бюджет: CNY 100 000 000
Премьера в мире: 19 мая 2004

7.60 (44 050)


В ролях: Такеши Канеширо, Энди Лау, Чжан Цзыи, Сун Даньдань, Чжао Хунфэй, Джан Гуо, Шу Чжан, Джиушен Ванг, Чжан Чжэнъюн, Ван Юнсинь

Описание: Джин до последней капли крови готов защищать прекрасную девушку-бунтарку, которую ему выпало сопровождать в опасном путешествии. Неожиданно воитель понимает, что за преданностью молодой женщине стоит другое и более сильное чувство любовь.Молодых со всех сторон преследуют опасности, вокруг плетутся коварные интриги, враги только и ждут случая, чтобы напасть. За любовь им приходится отчаянно сражаться, но для них это не проблема, ведь они владеют всеми мыслимыми и немыслимыми приемами восточных единоборств...
Полное имя : House.of.Flying.Daggers.(2004).BDRip.AVC.1080p.mkv
Формат : Matroska
Версия формата : Version 2
Размер файла : 7,95 Гбайт
Продолжительность : 1 ч. 59 м.
Общий поток : 9537 Кбит/сек
Дата кодирования : UTC 2011-07-31 11:17:01
Программа кодирования : mkvmerge v4.9.1 ('Ich will') сборка от Jul 11 2011 23:53:15
Библиотека кодирования : libebml v1.2.1 + libmatroska v1.1.1

Видео
Идентификатор : 1
Формат : AVC
Формат/Информация : Advanced Video Codec
Профиль формата : High@L4.1
Параметр CABAC формата : Да
Параметр ReFrames формата : 5 кадров
Параметры GOP формата : M=10, N=44
Идентификатор кодека : V_MPEG4/ISO/AVC
Продолжительность : 1 ч. 59 м.
Битрейт : 8139 Кбит/сек
Ширина : 1920 пикс.
Высота : 808 пикс.
Соотношение сторон : 2,40:1
Частота кадров : 23,976 кадр/сек
Цветовое пространство : YUV
Подвыборка цветности : 4:2:0
Битовая глубина : 8 бит
Тип развёртки : Прогрессивная
Бит/(Пиксели*Кадры) : 0.219
Размер потока : 6,63 Гбайт (83%)
Заголовок : BDRip 1080p by FREEISLAND
Библиотека кодирования : x264 core 116 r2037 f8ebd4a
Настройки программы : cabac=1 / ref=5 / deblock=1:-3:-3 / analyse=0x3:0x133 / me=umh / subme=7 / psy=1 / psy_rd=1.00:0.00 / mixed_ref=1 / me_range=48 / chroma_me=1 / trellis=2 / 8x8dct=1 / cqm=0 / deadzone=21,11 / fast_pskip=0 / chroma_qp_offset=-2 / threads=9 / sliced_threads=0 / nr=0 / decimate=1 / interlaced=0 / bluray_compat=0 / constrained_intra=0 / bframes=9 / b_pyramid=2 / b_adapt=1 / b_bias=35 / direct=1 / weightb=1 / open_gop=0 / weightp=2 / keyint=250 / keyint_min=23 / scenecut=40 / intra_refresh=0 / rc=2pass / mbtree=0 / bitrate=8139 / ratetol=1.0 / qcomp=1.00 / qpmin=0 / qpmax=51 / qpstep=2 / cplxblur=20.0 / qblur=0.5 / ip_ratio=1.40 / pb_ratio=1.30 / aq=1:1.00
Язык : English
Основные цвета : BT.709-5, BT.1361, IEC 61966-2-4, SMPTE RP177
Характеристики трансфера : BT.709-5, BT.1361
Коэффициенты матрицы : BT.709-5, BT.1361, IEC 61966-2-4 709, SMPTE RP177

Аудио #1
Идентификатор : 2
Формат : AC-3
Формат/Информация : Audio Coding 3
Расширение режима : CM (complete main)
Идентификатор кодека : A_AC3
Продолжительность : 1 ч. 59 м.
Вид битрейта : Постоянный
Битрейт : 640 Кбит/сек
Каналы : 6 каналов
Расположение каналов : Front: L C R, Side: L R, LFE
Частота : 48,0 КГц
Битовая глубина : 16 бит
Метод сжатия : С потерями
Размер потока : 546 Мбайт (7%)
Язык : Russian

Аудио #2
Идентификатор : 3
Формат : DTS
Формат/Информация : Digital Theater Systems
Идентификатор кодека : A_DTS
Продолжительность : 1 ч. 59 м.
Вид битрейта : Постоянный
Битрейт : 755 Кбит/сек
Каналы : 6 каналов
Расположение каналов : Front: L C R, Side: L R, LFE
Частота : 48,0 КГц
Битовая глубина : 24 бит
Метод сжатия : С потерями
Размер потока : 644 Мбайт (8%)
Язык : Chinese

Текст #1
Идентификатор : 4
Формат : UTF-8
Идентификатор кодека : S_TEXT/UTF8
Идентификатор кодека/Информация : UTF-8 Plain Text
Язык : Russian

Текст #2
Идентификатор : 5
Формат : VobSub
Режим смешивания : zlib
Идентификатор кодека : S_VOBSUB
Идентификатор кодека/Информация : The same subtitle format used on DVDs
Язык : English

Меню
00:00:00.000 : en:Chapter 01
00:10:24.957 : en:Chapter 02
00:19:06.603 : en:Chapter 03
00:28:23.827 : en:Chapter 04
00:37:30.998 : en:Chapter 05
00:45:31.103 : en:Chapter 06
00:56:28.718 : en:Chapter 07
01:03:13.623 : en:Chapter 08
01:15:12.883 : en:Chapter 09
01:27:41.297 : en:Chapter 10
01:38:02.084 : en:Chapter 11
01:47:37.993 : en:Chapter 12
01:59:18.943 : en:Chapter 13
Качество: BDRip 1080p
Формат: MKV
Видео кодек: H.264
Аудио кодек: AC3 + DTS
Видео: 1920 x 808 (2.376) at 23.976 fps AVC at 8139 Кбит/сек
Аудио: AC-3 at 640 Кбит/сек 6 каналов, 48,0 КГц - русский
Аудио: DTS at 768 Кбит/сек 6 каналов, 48,0 КГц - китайский
Субтитры: Русские -UTF-8(srt), английские -VobSub

Релиз от:



Скачать Дом.летающих.кинжалов.Shi.mian.mai.fu.(Чжан.Имоу).[2004.фэнтези.боевик.драма.мелодрама.приключения.BDRip].[1080p].[FREEISLAND].torrent без регистрации
Золото ЗОЛОТАЯ РАЗДАЧА! СКАЧАННОЕ НЕ ЗАСЧИТЫВАЕТСЯ! Золото
Дата: Зарегистрирован   [ Тип: внутренний ] Как тут cкачать?
MAGNET ссылка
MAGNET ссылка


Скачать .torrent

40 KB

Статус: проверено DHT
Скачан: торрент - 151 раз, раздача полностью - 137 раз
Размер: 7,95 GB
Оценка:  - (Голосов: 0)
Поблагодарили: 2
Поделиться ссылкой на эту раздачу с друзьями:
В контактеFacebookОдноклассникиTwitterLivejournalМой МирLiveinternet
 

 
Показать сообщения:    


Вы не можете начинать темы
Вы не можете отвечать на сообщения
Вы не можете редактировать свои сообщения
Вы не можете удалять свои сообщения
Вы не можете голосовать в опросах
Вы не можете прикреплять файлы к сообщениям
Вы можете скачивать файлы